Category: Tutorial   
Download Now

Sub Rosa by Jason England

Sub Rosa by Jason England
WEBRip | English | MP4 | 1280 x 720 | AVC ~1828 kbps | 23.976 fps
AAC | 160 Kbps | 48.0 KHz | 2 channels | 00:41:28 | 591 MB
Genre: eLearning Video / Tricks, illusion
Flawlessly control a single card - or group of cards - in a shuffled deck. The spectator can take the deck and examine it to their heart's content. They can even shuffle the deck themselves as many times as they desire. You have FULL and TOTAL control at all times.


General
Complete name : Sub Rosa by Jason England.mp4
Format

: MPEG-4
Format profile : Base Media / Version 2
Codec ID : mp42
File size : 591 MiB
Duration : 41mn 28s
Overall bit rate mode : Variable
Overall bit rate : 1 992 Kbps
Encoded date : UTC 2015-05-29 21:21:25
Tagged date : UTC 2015-05-29 21:21:25

Video
ID

: 1
Format

: AVC
Format/Info : Advanced Video Codec
Format profile : [emailprotected]/* */
Format settings, CABAC : Yes
Format settings, ReFrames : 4 frames
Codec ID : avc1
Codec ID/Info : Advanced Video Coding
Duration : 41mn 28s
Bit rate : 1 828 Kbps
Width

: 1 280 pixels
Height

: 720 pixels
Display aspect ratio : 16:9
Frame rate mode : Constant
Frame rate : 23.976 fps
Color space : YUV
Chroma subsampling : 4:2:0
Bit depth : 8 bits
Scan type : Progressive
Bits/(Pixel*Frame) : 0.083
Stream size : 542 MiB (92%)
Writing library : x264 core 146 r16 121396c
Encoding settings : cabac=1 / ref=3 / deblock=1:0:0 / analyse=0x3:0x113 / me=hex / subme=7 / psy=1 / psy_rd=1.00:0.00 / mixed_ref=1 / me_range=16 / chroma_me=1 / trellis=1 / 8x8dct=1 / cqm=0 / deadzone=21,11 / fast_pskip=1 / chroma_qp_offset=-2 / threads=84 / lookahead_threads=5 / sliced_threads=0 / nr=0 / decimate=1 / interlaced=0 / bluray_compat=0 / stitchable=1 / constrained_intra=0 / bframes=3 / b_pyramid=2 / b_adapt=1 / b_bias=0 / direct=1 / weightb=1 / open_gop=0 / weightp=2 / keyint=infinite / keyint_min=23 / scenecut=40 / intra_refresh=0 / rc_lookahead=40 / rc=crf / mbtree=1 / crf=20.0 / qcomp=0.60 / qpmin=5 / qpmax=69 / qpstep=4 / vbv_maxrate=2750 / vbv_bufsize=7500 / crf_max=0.0 / nal_hrd=none / filler=0 / ip_ratio=1.40 / aq=1:1.00
Encoded date : UTC 2015-05-29 21:21:25
Tagged date : UTC 2015-05-29 21:21:25
Color range : Limited
Color primaries : BT.709
Transfer characteristics : BT.709
Matrix coefficients : BT.709

Audio
ID

: 2
Format

: AAC
Format/Info : Advanced Audio Codec
Format profile : LC
Codec ID : 40
Duration : 41mn 28s
Bit rate mode : Variable
Bit rate : 160 Kbps
Channel(s) : 2 channels
Channel positions : Front: L R
Sampling rate : 48.0 KHz
Compression mode : Lossy
Stream size : 47.5 MiB (8%)
Encoded date : UTC 2015-05-29 21:21:25
Tagged date : UTC 2015-05-29 21:21:25


Sub Rosa by Jason England



Sub Rosa by Jason England



Sub Rosa by Jason England

DOWNLOAD
(Buy premium account for maximum speed and resuming ability)


Direct Download


Tags: Rosa, Jason, England

Sub Rosa by Jason England Fast Download via Rapidshare Hotfile Fileserve Filesonic Megaupload, Sub Rosa by Jason England Torrents and Emule Download or anything related.
Author: tnt1411  |  Comments: 0  |  Views: 0  
Dear visitor, you went to the site as unregistered user.
We recommend you Register or enter the site under your name.
Information
Members of Guest cannot leave comments.