Category: Tutorial   
Download Now

BodyCombat.71 - Master Class (2017)

BodyCombat 71 - Master Class (2017)
WEBRip | English | MP4 | 960 x 540 | AVC ~800 kbps | 25 fps
AAC | 192 Kbps | 63.8 KHz | 2 channels | 00:58:13 | 361 MB
Genre: eLearning Video / Cardio Workout, Fitness, Sports


BODYCOMBAT is a high-energy martial arts-inspired workout that is totally non-contact. Punch and kick your way to fitness and burn up to 740 calories* in a class. No experience needed. Learn moves from Karate, Taekwondo, Boxing, Muay Thai, Capoeira and Kung Fu. Release stress, have a blast and feel like a champ. Bring your best fighter attitude and leave inhibitions at the door.

General
Complete name : BodyCombat 71 - Master Class.mp4
Format : MPEG-4
Format profile : Base Media
Codec ID : isom
File size : 361 MiB
Duration : 58mn 13s
Overall bit rate : 868 Kbps
Writing application : Lavf56.40.100

Video
ID : 1
Format : AVC
Format/Info : Advanced Video Codec
Format profile : [email protected]
Format settings, CABAC : Yes
Format settings, ReFrames : 3 frames
Codec ID : avc1
Codec ID/Info : Advanced Video Coding
Duration : 58mn 13s
Bit rate : 800 Kbps
Width : 960 pixels
Height : 540 pixels
Display aspect ratio : 16:9
Frame rate mode : Variable
Frame rate : 25.000 fps
Minimum frame rate : 23.084 fps
Maximum frame rate : 25.000 fps
Color space : YUV
Chroma subsampling : 4:2:0
Bit depth : 8 bits
Scan type : Progressive
Bits/(Pixel*Frame) : 0.062
Stream size : 333 MiB (92%)

Audio
ID : 2
Format : AAC
Format/Info : Advanced Audio Codec
Format profile : HE-AAC / LC
Codec ID : 40
Duration : 58mn 13s
Bit rate mode : Constant
Bit rate : 63.8 Kbps
Channel(s) : 2 channels
Channel positions : Front: L R
Sampling rate : 44.1 KHz / 22.05 KHz
Compression mode : Lossy
Stream size : 26.6 MiB (7%)

Screenshots

BodyCombat.71 - Master Class (2017)


BodyCombat.71 - Master Class (2017)

BodyCombat.71 - Master Class (2017)

DOWNLOAD
(Buy premium account for maximum speed and resuming ability)


Direct Download


Tags: BodyCombat, Master, Class

BodyCombat.71 - Master Class (2017) Fast Download via Rapidshare Hotfile Fileserve Filesonic Megaupload, BodyCombat.71 - Master Class (2017) Torrents and Emule Download or anything related.
Author: tnt1411  |  Comments: 0  |  Views: 0  
Dear visitor, you went to the site as unregistered user.
We recommend you Register or enter the site under your name.
Information
Members of Guest cannot leave comments.