Category: Tutorial   
Download Now

Les Mills BodyPump.101 - Master Class (2017)

Les Mills: BodyPump 101 - Master Class (2017)
WEBRip | English | MP4 | 960 x 540 | AVC ~800 kbps | 25 fps
AAC | 63.8 Kbps 44.1 KHz | 2 channels | 01:01:49 | 384 MB
Genre: eLearning Video / Fitness, Cardio Workout, Healthl


BODYPUMP is a barbell workout for anyone looking to get lean, toned and fit - fast. Using light to moderate weights with lots of repetition, BODYPUMP gives you a total body workout. It will burn up to 540 calories*. Instructors will coach you through the scientifically proven moves and techniques pumping out encouragement, motivation and great music - helping you achieve much more than on your own! You'll leave the class feeling challenged and motivated, ready to come back for more. BODYPUMP is available as a either a 55, 45 or 30-minute workout.
The BODYPUMP workout is refreshed with new music and new moves every three months. Using light to moderate weights with lots of repetition, BODYPUMP gives you a total body workout. With instructors coaching you through the scientifically proven moves, and the motivation and music pumping, BODYPUMP will drive you to achieve much more than you would on your own. You'll walk away feeling strong, powerful and ready for more.

General
Complete name : Les Mills BodyPump 101 - Master Class.mp4
Format : MPEG-4
Format profile : Base Media
Codec ID : isom
File size : 384 MiB
Duration : 1h 1mn
Overall bit rate : 868 Kbps
Writing application : Lavf56.40.100

Video
ID : 1
Format : AVC
Format/Info : Advanced Video Codec
Format profile : [email protected]
Format settings, CABAC : Yes
Format settings, ReFrames : 3 frames
Codec ID : avc1
Codec ID/Info : Advanced Video Coding
Duration : 1h 1mn
Bit rate : 800 Kbps
Width : 960 pixels
Height : 540 pixels
Display aspect ratio : 16:9
Frame rate mode : Variable
Frame rate : 25.000 fps
Minimum frame rate : 23.992 fps
Maximum frame rate : 25.000 fps
Color space : YUV
Chroma subsampling : 4:2:0
Bit depth : 8 bits
Scan type : Progressive
Bits/(Pixel*Frame) : 0.062
Stream size : 354 MiB (92%)

Audio
ID : 2
Format : AAC
Format/Info : Advanced Audio Codec
Format profile : HE-AAC / LC
Codec ID : 40
Duration : 1h 1mn
Bit rate mode : Constant
Bit rate : 63.8 Kbps
Channel(s) : 2 channels
Channel positions : Front: L R
Sampling rate : 44.1 KHz / 22.05 KHz
Compression mode : Lossy
Stream size : 28.2 MiB (7%)

Screenshots

Les Mills BodyPump.101 - Master Class (2017)

Les Mills BodyPump.101 - Master Class (2017)

Les Mills BodyPump.101 - Master Class (2017)

DOWNLOAD
(Buy premium account for maximum speed and resuming ability)


Direct Download


Tags: Mills, BodyPump, Master, Class

Les Mills BodyPump.101 - Master Class (2017) Fast Download via Rapidshare Hotfile Fileserve Filesonic Megaupload, Les Mills BodyPump.101 - Master Class (2017) Torrents and Emule Download or anything related.
Author: tnt1411  |  Comments: 0  |  Views: 0  
Dear visitor, you went to the site as unregistered user.
We recommend you Register or enter the site under your name.
Information
Members of Guest cannot leave comments.