Category: Tutorial   
Download Now

Shooting with the Elinchrom Quadra System

Shooting with the Elinchrom Quadra System
WEBRip | FLV | English | 852 x 478 | AVC ~820 kbps | 23.976 fps
MP3 | 128 Kbps | 44.1 KHz | 2 channels | 02:20:36 | 966 MB
Genre: Video Tutorial / Photographing


The Elinchrom Quadra lighting system is a frontier unit, meaning that it goes beyond the power of a small flash while still being lighter and more portable than a big flash. Photographer Joe McNally takes the Quadra system out into the field to multiple photo shoots and kicks the tires to see just what the unit is capable of.
Content:

01 Introduction 1:42
02 Overview of the Quadra Flash Unit 3:44
03 Taking the Quadra into the Field 0:36
04 Safety When Shooting with Firearms 1:35
05 Sniper Shot, Part 1 17:01
06 Sniper Shot, Part 2 8:47
07 San Francisco Dancer 7:37
08 Ballerina in the Fog 2:38
09 A Conspiracy of Beards 11:02
10 Controlling the Light 10:04
11 Motorcycle on the Pier 12:41
12 Studio Review of the Motorcycle Shoot 4:17
13 Fashion Shoot on City Streets 4:55
14 Shooting a Moving Motorcycle 9:55
15 Racing the Light: Evening Shoot 14:56
16 Studio Review of the Evening Shoot 1:47
17 Conclusion and Summary 1:16
18 Bonus: Buttons and Dials, Part 1 4:36
19 Bonus: Buttons and Dials, Part 2 15:27
20 Bonus: Buttons and Dials, Part 3 6:00

General
Complete name : 06 Sniper Shot, Part 2.flv
Format : Flash Video
File size : 58.0 MiB
Duration : 8mn 46s
Overall bit rate : 924 Kbps
Encoded date : Mon Jul 5 16:25:57 2010

Video
Format : VP6
Codec ID : 4
Duration : 8mn 46s
Bit rate : 820 Kbps
Width : 852 pixels
Height : 478 pixels
Display aspect ratio : 16:9
Frame rate mode : Constant
Frame rate : 23.976 fps
Bit depth : 8 bits
Bits/(Pixel*Frame) : 0.084
Stream size : 51.5 MiB (89%)

Audio
Format : MPEG Audio
Format version : Version 1
Format profile : Layer 3
Mode : Joint stereo
Mode extension : MS Stereo
Codec ID : 2
Codec ID/Hint : MP3
Duration : 8mn 46s
Bit rate mode : Constant
Bit rate : 128 Kbps
Channel(s) : 2 channels
Sampling rate : 44.1 KHz
Compression mode : Lossy
Stream size : 8.03 MiB (14%)

Screenshots

Shooting with the Elinchrom Quadra System

Shooting with the Elinchrom Quadra System

DOWNLOAD
(Buy premium account for maximum speed and resuming ability)


Direct Download


Tags: Shooting, with, Elinchrom, Quadra, System

Shooting with the Elinchrom Quadra System Fast Download via Rapidshare Hotfile Fileserve Filesonic Megaupload, Shooting with the Elinchrom Quadra System Torrents and Emule Download or anything related.
Author: tnt1411  |  Comments: 0  |  Views: 0  
Dear visitor, you went to the site as unregistered user.
We recommend you Register or enter the site under your name.
Information
Members of Guest cannot leave comments.