Category: Tutorial   
Download Now


Lick Library - Jam With Gary Moore 2 DVD (2014)
Lick Library - Jam With Gary Moore 2 DVD (2014)
DVD5 | VOB | MPEG2 2518kbps | English | 720x576 | 25fps | 2h 25mins | AC3 stereo 192kbps | 8.12 GB





Gary Moore is rightfully remembered as a true virtuoso musician and one of the finest guitarists that the British Isles has ever produced. On this new 2 DVD and CD Set, we take a look at seven of the songs that helped cement Gary Moore's status as a true legend of Blues-Rock guitar.
Song lessons & Jam Tracks include:
Still Got The Blues
The Loner
Parisienne Walkways
Over The Hills And Far Away
Walking By Myself
Oh Pretty Woman
Empty Rooms

Jamie Humphries will guide you through each section of each song, teaching you all the main riffs and parts and guiding you through Gary Moore's solo building process.


Lick Library - Jam With Gary Moore 2 DVD (2014)

Format : MPEG-PS
File size : 128 MiB
Duration : 6mn 27s
Overall bit rate mode : Variable
Overall bit rate : 2 765 Kbps
Video #224
ID : 224 (0xE0)
Format : MPEG Video
Format version : Version 2
Format profile : [email protected]
Format settings, BVOP : Yes
Format settings, Matrix : Custom
Format settings, GOP : Variable
Duration : 24ms
Bit rate mode : Variable
Bit rate : 2 518 Kbps
Maximum bit rate : 6 000 Kbps
Width : 720 pixels
Height : 576 pixels
Display aspect ratio : 16:9
Frame rate : 25.000 fps
Standard : PAL
Color space : YUV
Chroma subsampling : 4:2:0
Bit depth : 8 bits
Scan type : Interlaced
Scan order : Bottom Field First
Compression mode : Lossy
Bits/(Pixel*Frame) : 0.243
Time code of first frame : 00:00:00:00
Time code source : Group of pictures header
Stream size : 12.3 KiB (0%)
Audio #189-128
ID : 189 (0xBD)-128 (0x80)
Format : AC-3
Format/Info : Audio Coding 3
Mode extension : CM (complete main)
Format settings, Endianness : Big
Muxing mode : DVD-Video
Duration : 6mn 27s
Bit rate mode : Constant
Bit rate : 192 Kbps
Channel(s) : 2 channels
Channel positions : Front: L R
Sampling rate : 48.0 KHz
Bit depth : 16 bits
Compression mode : Lossy
Stream size : 8.87 MiB (7%)


Lick Library - Jam With Gary Moore 2 DVD (2014)

Lick Library - Jam With Gary Moore 2 DVD (2014)

Lick Library - Jam With Gary Moore 2 DVD (2014)

I recommends Buy premimum account for High speed+parallel downloads!

rapidgator

http://rapidgator.net/file/7413dc917980e2ffce6c8ad70d37bbac/qandr.Lick.Library..Jam.With.Gary.Moore.2.DVD.2014.part01.rar.html
http://rapidgator.net/file/6a1d785eba3c0adeeab6732e83aa84db/qandr.Lick.Library..Jam.With.Gary.Moore.2.DVD.2014.part02.rar.html
http://rapidgator.net/file/002e881ceee2e674a431c065903262d4/qandr.Lick.Library..Jam.With.Gary.Moore.2.DVD.2014.part03.rar.html
http://rapidgator.net/file/33d586ba5b1383d2a50d9fb50d0558b9/qandr.Lick.Library..Jam.With.Gary.Moore.2.DVD.2014.part04.rar.html
http://rapidgator.net/file/3ad0f370bf4f62b395b3a35240996de4/qandr.Lick.Library..Jam.With.Gary.Moore.2.DVD.2014.part05.rar.html
http://rapidgator.net/file/add764ae97a84bd8e494fd310e473145/qandr.Lick.Library..Jam.With.Gary.Moore.2.DVD.2014.part06.rar.html
http://rapidgator.net/file/89779d32fc102589d4e6cb6d8475645b/qandr.Lick.Library..Jam.With.Gary.Moore.2.DVD.2014.part07.rar.html
http://rapidgator.net/file/9c56bb91fe6700e27d4d836ae67dd408/qandr.Lick.Library..Jam.With.Gary.Moore.2.DVD.2014.part08.rar.html
http://rapidgator.net/file/94b25a315322152fcb6da082c6942f22/qandr.Lick.Library..Jam.With.Gary.Moore.2.DVD.2014.part09.rar.html
http://rapidgator.net/file/f2b24675766d09d36291685254799e8b/qandr.Lick.Library..Jam.With.Gary.Moore.2.DVD.2014.part10.rar.html
http://rapidgator.net/file/3d86a9628c1ab5ff0dd443e043912099/qandr.Lick.Library..Jam.With.Gary.Moore.2.DVD.2014.part11.rar.html
http://rapidgator.net/file/78ffb099de8b4412ee6daac2ef925f77/qandr.Lick.Library..Jam.With.Gary.Moore.2.DVD.2014.part12.rar.html
http://rapidgator.net/file/7a2497df001cc8f82b9e875e39ab2270/qandr.Lick.Library..Jam.With.Gary.Moore.2.DVD.2014.part13.rar.html
http://rapidgator.net/file/3da2566eecad815200e6dd56f12e81e6/qandr.Lick.Library..Jam.With.Gary.Moore.2.DVD.2014.part14.rar.html
http://rapidgator.net/file/d2fbc9612e76410b6813fa18bf764035/qandr.Lick.Library..Jam.With.Gary.Moore.2.DVD.2014.part15.rar.html


uploaded


Direct Download


Tags: Lick, Library, With, Gary, Moore

Lick Library - Jam With Gary Moore 2 DVD (2014) Fast Download via Rapidshare Hotfile Fileserve Filesonic Megaupload, Lick Library - Jam With Gary Moore 2 DVD (2014) Torrents and Emule Download or anything related.
Author: shareislove  |  Comments: 0  |  Views: 0  
Dear visitor, you went to the site as unregistered user.
We recommend you Register or enter the site under your name.
Information
Members of Guest cannot leave comments.