Category: Tutorial   
Download Now


Eric Toensmeier - Perennial Vegetable Gardening & A Global Inventory
Eric Toensmeier - Perennial Vegetable Gardening & A Global Inventory of Perennial Vegetables[4 DVD Rips (avi) + 1 eBook (PDF)]
English | Size: 2.15 GB (2,304,237,175 bytes)





In this DVD-a culmination of workshops recorded in Mexico, Florida, and Massachusetts--plant specialist Eric Toensmeier introduces gardeners to more than 100 species of little-known and underappreciated plants. Ranging beyond the usual suspects (asparagus, rhubarb, and artichoke) to include such delights as ground cherry, ramps, and air potatoes, Toensmeier explains how to raise, tend, harvest, and cook with plants that yield great crops and culinary satisfaction. Toensmeier also takes viewers on a plant-by-plant tour of his garden in Massachusetts.

Imagine growing vegetables that require the same amount of care as perennial ?owers and shrubs, need no annual tilling or planting, and produce abundant and nutritious crops throughout the season.

In this DVD-a culmination of workshops recorded in Mexico, Florida, and Massachusetts--plant specialist Eric Toensmeier introduces gardeners to more than 100 species of little-known and underappreciated plants. Ranging beyond the usual suspects (asparagus, rhubarb, and artichoke) to include such delights as ground cherry, ramps, and air potatoes, Toensmeier explains how to raise, tend, harvest, and cook with plants that yield great crops and culinary satisfaction. Toensmeier also takes viewers on a plant-by-plant tour of his garden in Massachusetts.

Perennial Vegetable Gardening with Eric Toensmeier is an excellent companion to Toensmeier book Perennial Vegetables (Chelsea Green, 2007), in which the adventurous gardener will ?nd information, tips, and sound advice on less-common edibles that will make any garden a perpetual, low-maintenance source of food. Pro?ling more than a hundred species, with dozens of color photographs and illustrations, and ?lled with valuable growing tips, recipes, and resources, Perennial Vegetables is a groundbreaking and ground-healing book that will open the eyes of gardeners everywhere to the exciting world of edible perennials.

Part I Perennial Vegetable Gardening in Cold Climates: Spring in Massachusetts
Part II Perennial Vegetable Gardening in the Tropical Highlands: Mexico
Part III Tropical and Subtropical Perennial Vegetable Specie s: Florida
Part IV Perennial Vegetable Gardening in Cold Climates: Autumn in Massachusetts

The following technical information is for the Part 1 video and audio files. It is representative of the remaining 3 videos.

Complete name : Part I Perennial Vegetable Gardening in Cold Climates - Spring in Massachusetts.avi
Format : AVI
Format/Info : Audio Video Interleave
File size : 468 MiB
Duration : 30mn 32s
Overall bit rate : 2 144 Kbps
Writing application : Lavf52.57.1

Video
ID : 0
Format : xvid
Codec ID : xvid
Duration : 30mn 32s
Bit rate : 2 003 Kbps
Width : 1280 pixels
Height : 720 pixels
Display aspect ratio : 16:9
frame rate : 29.970 fps
Bits/(Pixel*frame) : 0.073
Stream size : 437 MiB (93%)

Audio
ID : 1
Format : MPEG Audio
Format version : Version 1
Format profile : Layer 3
Mode : Joint stereo
Mode extension : MS Stereo
Codec ID : 55
Codec ID/Hint : MP3
Duration : 30mn 32s
Bit rate mode : Constant
Bit rate : 128 Kbps
Channel(s) : 2 channels
Sampling rate : 44.1 KHz
Compression mode : Lossy
Stream size : 28.0 MiB (6%)
Alignment : Aligned on interleaves
Interleave, duration : 26 ms (0.78 video frame)
Writing library : LAME3.98.2

A Global Inventory of Perennial Vegetables is a searchable pdf of perennial vegetabless showing Latin name, common name, origin, form, edible parts, sun & shade, moisture and notes.

Director: Eric Toensmeier
Studio: Chelsea Green Publishing
DVD Release Date: December 20, 2012
Run Time: 143 minutes
ASIN: 1603583696

I recommends Buy premimum account for High speed+parallel downloads!

rapidgator


Download From Nitroflare


uploaded


Direct Download


Tags: Eric, Toensmeier, Perennial, Vegetable, Gardening, Global, Inventory

Eric Toensmeier - Perennial Vegetable Gardening & A Global Inventory Fast Download via Rapidshare Hotfile Fileserve Filesonic Megaupload, Eric Toensmeier - Perennial Vegetable Gardening & A Global Inventory Torrents and Emule Download or anything related.
Author: shareislove  |  Comments: 0  |  Views: 0  
Dear visitor, you went to the site as unregistered user.
We recommend you Register or enter the site under your name.
Information
Members of Guest cannot leave comments.