Category: Tutorial   
Download Now

Amazon FBA Canada: Your Complete Canadian Guide To Profits (2016)

Amazon FBA Canada: Your Complete Canadian Guide To Profits (2016)
WEBRip | English | MP4 | 1280 x 720 | AVC ~914 kbps | 30 fps
AAC | 58.1 Kbps | 44.1 KHz | 2 channels | ~2.5 hours | 1.87 GB
Genre: eLearning Video / Home Business, Job

How to sell on Amazon FBA for Canadians: Because it's not the same as FBA selling in the USA. No experience required. Things work differently when you're selling on Amazon FBA in Canada - you need to consider different product prices, shipping costs, methods, and processes for preparing your Amazon FBA Canada shipments.
When I was first selling on Amazon FBA, I had trouble finding any useful resources for Canadians on how to make money with this. I would spend hours watching videos on YouTube only to find out that some of the material did not apply because I was in Canada.

I specifically created this course to provide you with a complete and comprehensive step-by-step guide for how to sell on Amazon FBA in Canada. Learn from my experience to make more profits and keep more money in your pockets.

Master Retail Arbitrage In Under 3 Hours Using these Detailed Video Lessons and Tips Taught in This Course.

Create your own Amazon Seller Account and connect it to your bank account so you can get PAID!
Master the use of the Amazon Seller App for scanning products at the store
Identify which items will make you more profits when selling on Amazon FBA in Canada
Ship your items for FBA selling using Canada Post with the proper sticker labels
Avoid losing money with these saving hacks that specifically apply to Canadians (cuz things are more expensive here!)
Properly package and prepare your Amazon FBA Canada shipment so it does not get damaged on the way to the fulfillment centers
I am so grateful I get to be your guide through all of this. We will go through every step together: we'll make sure you have the right tools to get started, we'll go scanning for products together at Walmart, we'll print the labels together and stick them on properly, we'll go to Canada Post together and ship your package....

And of course, we'll make sales together!

This Amazon FBA Canada course is also complete with check-in points so you can easily digest this information and take action on it.

I will also be adding an entire section on ninja strategies for making more money - I have a few tips up my sleeves and have already planned more videos that will be coming down the pipeline soon! :)

Let's do this my fellow Canadians!

Click on the "Take This Course" button and I look forward to meeting you inside.

- Jewel Tolentino

What are the requirements?
You will need access to a computer or laptop with internet.
Access to a computer or laptop with internet.

What am I going to get from this course?
Start selling on Amazon FBA in Canada and make money
Create your own Amazon Seller Account and connect it to your bank account so you can get PAID!
Master the use of the Amazon Seller App for scanning products at the store
Identify which items will make you more profits when selling on Amazon FBA in Canada
Ship your items for FBA selling using Canada Post with the proper sticker labels
Avoid losing money with these saving hacks that specifically apply to Canadians (cuz things are more expensive here!)
Properly package and prepare your Amazon FBA Canada shipment so it does not get damaged on the way to the fulfillment centers

What is the target audience?
This Amazon FBA Canada course is meant for Canadians who want to learn the process of making money from scanning and selling Amazon FBA items or "retail arbitrage". No prior FBA selling experience is needed.

and You can watch my other last:



General
Complete name : 03 - What you'll need to successfully complete this course.mp4
Format

: MPEG-4
Format profile : Base Media
Codec ID : isom
File size : 25.1 MiB
Duration : 3mn 36s
Overall bit rate mode : Variable
Overall bit rate : 976 Kbps
Encoded date : UTC 2016-02-24 04:20:42
Tagged date : UTC 2016-02-24 04:20:42

Video
ID

: 1
Format

: AVC
Format/Info : Advanced Video Codec
Format profile : [email protected]
Format settings, CABAC : No
Format settings, ReFrames : 3 frames
Format settings, GOP : M=1, N=50
Codec ID : avc1
Codec ID/Info : Advanced Video Coding
Duration : 3mn 36s
Bit rate : 914 Kbps
Maximum bit rate : 1 605 Kbps
Width

: 1 280 pixels
Height

: 720 pixels
Display aspect ratio : 16:9
Frame rate mode : Constant
Frame rate : 30.000 fps
Color space : YUV
Chroma subsampling : 4:2:0
Bit depth : 8 bits
Scan type : Progressive
Bits/(Pixel*Frame) : 0.033
Stream size : 23.6 MiB (94%)
Writing library : Zencoder Video Encoding System
Encoded date : UTC 2016-02-24 04:20:20
Tagged date : UTC 2016-02-24 04:20:42

Audio
ID

: 2
Format

: AAC
Format/Info : Advanced Audio Codec
Format profile : LC
Codec ID : 40
Duration : 3mn 36s
Bit rate mode : Variable
Bit rate : 58.1 Kbps
Maximum bit rate : 66.1 Kbps
Channel(s) : 2 channels
Channel positions : Front: L R
Sampling rate : 44.1 KHz
Compression mode : Lossy
Stream size : 1.50 MiB (6%)
Encoded date : UTC 2016-02-24 04:20:20
Tagged date : UTC 2016-02-24 04:20:42



Amazon FBA Canada: Your Complete Canadian Guide To Profits (2016)





Amazon FBA Canada: Your Complete Canadian Guide To Profits (2016)






Amazon FBA Canada: Your Complete Canadian Guide To Profits (2016)




Amazon FBA Canada: Your Complete Canadian Guide To Profits (2016)





Amazon FBA Canada: Your Complete Canadian Guide To Profits (2016)





Amazon FBA Canada: Your Complete Canadian Guide To Profits (2016)




Amazon FBA Canada: Your Complete Canadian Guide To Profits (2016)




DOWNLOAD:


Direct Download


Tags: amazon, canada, complete, canadian, profits

Amazon FBA Canada: Your Complete Canadian Guide To Profits (2016) Fast Download via Rapidshare Hotfile Fileserve Filesonic Megaupload, Amazon FBA Canada: Your Complete Canadian Guide To Profits (2016) Torrents and Emule Download or anything related.
Author: bestrelease  |  Comments: 0  |  Views: 0  
Dear visitor, you went to the site as unregistered user.
We recommend you Register or enter the site under your name.
Information
Members of Guest cannot leave comments.