Category: Tutorial   
Download Now

Kindle Best Sellers Like Clockwork

Kindle Best Sellers Like Clockwork
WEBRip | English | MP4 + MP3 + Project files | 640 x 360 | AVC ~141 kbps | 30 fps
AAC | 53.4 Kbps | 44.1 KHz | 2 channels | 04:50:30 | 964 MB
Genre: eLearning Video / Business, Sales, Marketing
Do you ordinary Kindle publishers left dumbfounded? Well, you will when you unleash these 6 Kindle Instant Bestseller Secrets to consistently crank-out single Kindle books that generate $1000s a month and bestseller status in just a matter of days!


Every book continues to make you a never-ending, never-decreasing $100-$1000 monthly passive income with ZERO additional effort or expense on your part!

you'll get access to:

6 KBLC Videos
6 KBLC Audios
Quick Start PDF
'KDP 6 Bonus Figures Exposed' Super Bonus PDF
GeneralComplete name      : kctl-job-training-v1.mp4Format     : MPEG-4Format profile     : Base Media / Version 2Codec ID   : mp42File size  : 189 MiBDuration   : 1h 53mnOverall bit rate mode                    : VariableOverall bit rate   : 233 KbpsEncoded date       : UTC 2015-04-13 23:17:12Tagged date: UTC 2015-04-13 23:17:12VideoID : 1Format     : AVCFormat/Info: Advanced Video CodecFormat profile     : [email protected] settings, CABAC                   : YesFormat settings, ReFrames                : 4 framesCodec ID   : avc1Codec ID/Info      : Advanced Video CodingDuration   : 1h 53mnSource duration    : 1h 53mnBit rate mode      : VariableBit rate   : 161 KbpsMaximum bit rate   : 819 KbpsWidth      : 640 pixelsHeight     : 360 pixelsDisplay aspect ratio                     : 16:9Frame rate mode    : ConstantFrame rate : 30.000 fpsStandard   : NTSCColor space: YUVChroma subsampling : 4:2:0Bit depth  : 8 bitsScan type  : ProgressiveBits/(Pixel*Frame) : 0.023Stream size: 131 MiB (69%)Source stream size : 143 MiB (76%)Language   : EnglishEncoded date       : UTC 2015-04-13 23:17:12Tagged date: UTC 2015-04-13 23:17:12mdhd_Duration      : 6801687Color primaries    : BT.601 NTSCTransfer characteristics                 : BT.601Matrix coefficients: BT.601AudioID         : 2Format     : AACFormat/Info: Advanced Audio CodecFormat profile     : LCCodec ID   : 40Duration   : 1h 53mnSource duration    : 1h 53mnBit rate mode      : ConstantBit rate   : 53.4 KbpsChannel(s) : 2 channelsChannel positions  : Front: L RSampling rate      : 44.1 KHzCompression mode   : LossyStream size: 43.5 MiB (23%)Source stream size : 43.5 MiB (23%)Language   : EnglishEncoded date       : UTC 2015-04-13 23:17:12Tagged date: UTC 2015-04-13 23:17:12mdhd_Duration      : 6827064

Kindle Best Sellers Like Clockwork


Kindle Best Sellers Like Clockwork


Kindle Best Sellers Like Clockwork

Kindle Best Sellers Like Clockwork

DOWNLOAD
(Buy premium account for maximum speed and resuming ability)


Direct Download


Tags: Kindle, Sellers, Clockwork

Kindle Best Sellers Like Clockwork Fast Download via Rapidshare Hotfile Fileserve Filesonic Megaupload, Kindle Best Sellers Like Clockwork Torrents and Emule Download or anything related.
Author: tnt1411  |  Comments: 0  |  Views: 0  
Dear visitor, you went to the site as unregistered user.
We recommend you Register or enter the site under your name.
Information
Members of Guest cannot leave comments.