Category: Tutorial   
Download Now

TutsPlus - Get Started With NativeScript and Mobile Angular 2 (2016)

TutsPlus - Get Started With NativeScript and Mobile Angular 2 (2016)
WEBRip | English | MP4 | 1280 x 720 | AVC ~1359 kbps | 25 fps
AAC | 188 Kbps | 44.1 KHz | 2 channels | 01:09:02 | 713 MB
Genre: Video Tutorial / NativeScript, Angular 2, Cross-Platform Mobile, javascript
Writing cross-platform mobile apps is hard. On one hand, it can save money to use a javascript-based cross-platform mobile framework. But on the other hand, we'd like to be able to give app users the speed and elegance of a native app.


Well, NativeScript is a cross-platform mobile framework that lets us have the best of both worlds. With NativeScript, we can write apps using the web technologies we know and love: CSS, ES6, and even frameworks like Angular 2.

In this course, Envato Tuts+ instructor Reggie Dawson will teach you how to build a cross-platform native app with NativeScript and Angular 2. You'll get to try out the TypeScript language, and you'll learn how Angular 2 and NativeScript can work together. You'll get hands-on practice with some of the most important NativeScript components-like buttons and activity bars that render with native Android and iOS components. You'll also understand how to connect NativeScript with Angular 2 concepts like routing. And by the time you've finished, you'll have built a simple but functional native app, with a Firebase back-end.

Instructor: Reginald Dawson
Released: 29 November, 2016

also You can watch my other last:



General
Complete name : 0204_Testing and Debugging a NativeScript App.mp4
Format

: MPEG-4
Format profile : Base Media / Version 2
Codec ID : mp42
File size : 64.4 MiB
Duration : 5mn 48s
Overall bit rate mode : Variable
Overall bit rate : 1 551 Kbps
Encoded date : UTC 2016-11-29 03:50:46
Tagged date : UTC 2016-11-29 03:57:06

Video
ID

: 1
Format

: AVC
Format/Info : Advanced Video Codec
Format profile : [emailprotected]/* */
Format settings, CABAC : Yes
Format settings, ReFrames : 5 frames
Codec ID : avc1
Codec ID/Info : Advanced Video Coding
Duration : 5mn 48s
Bit rate : 1 359 Kbps
Width

: 1 280 pixels
Height

: 720 pixels
Display aspect ratio : 16:9
Frame rate mode : Constant
Frame rate : 25.000 fps
Color space : YUV
Chroma subsampling : 4:2:0
Bit depth : 8 bits
Scan type : Progressive
Bits/(Pixel*Frame) : 0.059
Stream size : 56.4 MiB (88%)
Encoded date : UTC 2016-11-29 03:50:46
Tagged date : UTC 2016-11-29 03:57:06
Color primaries : BT.709
Transfer characteristics : BT.709
Matrix coefficients : BT.709

Audio
ID

: 2
Format

: AAC
Format/Info : Advanced Audio Codec
Format profile : LC
Codec ID : 40
Duration : 5mn 48s
Bit rate mode : Variable
Bit rate : 188 Kbps
Maximum bit rate : 325 Kbps
Channel(s) : 2 channels
Channel positions : Front: L R
Sampling rate : 44.1 KHz
Compression mode : Lossy
Stream size : 7.81 MiB (12%)
Encoded date : UTC 2016-11-29 03:50:46
Tagged date : UTC 2016-11-29 03:51:04



TutsPlus - Get Started With NativeScript and Mobile Angular 2 (2016)

TutsPlus - Get Started With NativeScript and Mobile Angular 2 (2016)



TutsPlus - Get Started With NativeScript and Mobile Angular 2 (2016)




TutsPlus - Get Started With NativeScript and Mobile Angular 2 (2016)

DOWNLOAD
(Buy premium account for maximum speed and resuming ability)


Direct Download


Tags: TutsPlus, Started, With, NativeScript, Mobile, Angular

TutsPlus - Get Started With NativeScript and Mobile Angular 2 (2016) Fast Download via Rapidshare Hotfile Fileserve Filesonic Megaupload, TutsPlus - Get Started With NativeScript and Mobile Angular 2 (2016) Torrents and Emule Download or anything related.
Author: tnt1411  |  Comments: 0  |  Views: 0  
Dear visitor, you went to the site as unregistered user.
We recommend you Register or enter the site under your name.
Information
Members of Guest cannot leave comments.