Category: Tutorial   
Download Now

Bitcoin &.Ripple Course (2 Course Bundle)

Bitcoin & Ripple Course (2 Course Bundle)
WEBRip | English | MP4 | 1280 x 720 | AVC ~121 Kbps | 20 fps
AAC | 192 Kbps | 48.0 KHz | 2 channels | 04:01:31 | 620 MB
Genre: eLearning Video / Investments, Cryptocurrency
The Future CryptoCurrency Bitcoin & Ripple is here - Basics of Bitcoin & Ripple - Bitcoin & Ripple on Technical Charts


What Will I Learn?

Learn the best Cryptocurrency
Be An Early Mover in Bitcoin or Ripple
Understand How Bitcoin or Ripple Works
Bitcoin or Ripple on Technical Charts
Technical Analysis on these currencies

Requirements


No Previous knowledge on Bitcoin or Ripple Required

Description

This 2 Course Bundle Includes The Complete Short Course on Ripple - AltCoin Cryptocurrency & The Complete Short Bitcoin Course - With Technical Analysis Courses.

Do you Want to Understand why is Bitcoin & Ripple Rising?

Who is buying it?

Why People Own it?

Then you have come to the Right Place.

I will guide you how to buy; what is its future.

You will learn in depth Analysis about What is Bitcoin & Ripple Wallets, Block Chain or even Bitcoin Mining.

You can always apply for 100% money-back guarantee within 30 days.

This course is designed for Everyone who wants to own or understand the best cryptocurrency, Bitcoin & Ripple. Bitcoin & Ripple is the future and you should understand it before it disrupts the currency in your pocket.

I am a Trader First and Crypto Investor 2nd; therefore you will learn what happens next.

I will Explain it as an Investment today or in the future.

Learn Bitcoin & Ripple through Technical Analysis as well as this Course focuses on the future movement.

You will also get a lifetime access to this course, without any limits!
I will update it every now and then absolutely free.
You get a 30-DAY FULL-MONEY BACK GUARANTEE.

Who is the target audience?

The Future Investor
This course is made for newbies entering Bitcoin or Ripple

General
Complete name : 36-Argentina_and_Cyprus_Debt_Crises_and_Bitcoin.mp4
Format : MPEG-4
Format profile : Base Media / Version 2
Codec ID : mp42 (isom/iso2/avc1/mp41/mp42)
File size : 9.15 MiB
Duration : 4 min 5 s
Overall bit rate mode : Variable
Overall bit rate : 313 kb/s
Encoded date : UTC 2017-07-03 02:59:45
Tagged date : UTC 2017-07-03 02:59:45
Writing application : Lavf53.32.100

Video
ID : 1
Format : AVC
Format/Info : Advanced Video Codec
Format profile : [email?protected]
Format settings, CABAC : Yes
Format settings, ReFrames : 4 frames
Codec ID : avc1
Codec ID/Info : Advanced Video Coding
Duration : 4 min 5 s
Bit rate : 121 kb/s
Nominal bit rate : 131 kb/s
Width : 1 280 pixels
Height : 720 pixels
Display aspect ratio : 16:9
Frame rate mode : Constant
Frame rate : 20.000 FPS
Color space : YUV
Chroma subsampling : 4:2:0
Bit depth : 8 bits
Scan type : Progressive
Bits/(Pixel*Frame) : 0.007
Stream size : 3.53 MiB (39%)
Writing library : x264 core 136
Encoding settings : cabac=1 / ref=4 / deblock=1:0:0 / analyse=0x3:0x113 / me=umh / subme=7 / psy=0 / mixed_ref=1 / me_range=16 / chroma_me=1 / trellis=1 / 8x8dct=1 / cqm=0 / deadzone=21,11 / fast_pskip=0 / chroma_qp_offset=0 / threads=48 / lookahead_threads=5 / sliced_threads=0 / nr=0 / decimate=1 / interlaced=0 / bluray_compat=0 / constrained_intra=0 / bframes=16 / b_pyramid=2 / b_adapt=1 / b_bias=0 / direct=1 / weightb=1 / open_gop=0 / weightp=2 / keyint=300 / keyint_min=25 / scenecut=40 / intra_refresh=0 / rc=2pass / mbtree=0 / bitrate=131 / ratetol=1.0 / qcomp=0.60 / qpmin=10 / qpmax=51 / qpstep=4 / cplxblur=20.0 / qblur=0.5 / ip_ratio=1.40 / pb_ratio=1.30 / aq=1:1.00
Language : English
Encoded date : UTC 2017-07-03 02:59:45
Tagged date : UTC 2017-07-29 03:58:14

Audio
ID : 2
Format : AAC
Format/Info : Advanced Audio Codec
Format profile : LC
Codec ID : 40
Duration : 4 min 5 s
Bit rate mode : Variable
Bit rate : 192 kb/s
Channel(s) : 2 channels
Channel positions : Front: L R
Sampling rate : 48.0 kHz
Frame rate : 46.875 FPS (1024 spf)
Compression mode : Lossy
Stream size : 5.54 MiB (61%)
Default : Yes
Alternate group : 1
Encoded date : UTC 2017-07-03 02:59:45
Tagged date : UTC 2017-07-29 03:58:14

Screenshots

Bitcoin &.Ripple Course (2 Course Bundle)

Bitcoin &.Ripple Course (2 Course Bundle)

Bitcoin &.Ripple Course (2 Course Bundle)
DOWNLOAD
(Buy premium account for maximum speed and resuming ability)


Direct Download

Tags: Bitcoin, Ripple, Course, Course, Bundle

Bitcoin &.Ripple Course (2 Course Bundle) Fast Download via Rapidshare Hotfile Fileserve Filesonic Megaupload, Bitcoin &.Ripple Course (2 Course Bundle) Torrents and Emule Download or anything related.
Author: tnt1411  |  Comments: 0  |  Views: 0  
Dear visitor, welcome here, but you are visiting our website as an unregistered user.
We recommend you Register or login with your own username.
Information
Members of Guest cannot leave comments.