Category: Tutorial   
Download Now

Licklibrary - Jam with Rammstein (2017)
Licklibrary - Jam with Rammstein (2017)
HDRip | English | MP4 + PDF Guides | 1920 x 1080 | AVC ~1500 kbps | 25 fps
AAC 128 Kbps 48.0 KHz | 2 channels | 01:52:47 | 1.28 GB
Genre: eLearning Video / Guitar lesson

Formed in 1994, Rammstein is one of the biggest bands in the history of industrial metal, with over 35 million albums sold across the globe This excellent course will show you how to nail seven tracks by the German metal icons whose riff heavy songs are continuing to pack out venues and festivals worldwide!


Play along with guitar jam tracks to learn the following songs;

* Feuer Frei!
* Ich Will
* Sonne
* Links 2-3-4
* Du Hast
* Benzin
* Mein Herz Brennt


General
Complete name : Intro & Main Riff.mp4
Format : MPEG-4
Codec ID : M4V (isom/avc1/iso6/M4A /M4V /mp42)
File size : 106 MiB
Duration : 9 min
Overall bit rate mode : Variable
Overall bit rate : 1 632 kb/s
Encoded date : UTC 2017-11-29 19:17:10
Tagged date : UTC 2017-11-29 19:17:10

Video
ID : 1
Format : AVC
Format/Info : Advanced Video Codec
Format profile : [/url]
Format settings, CABAC : Yes
Format settings, ReFrames : 4 frames
Codec ID : avc1
Codec ID/Info : Advanced Video Coding
Duration : 9 min
Bit rate : 1 500 kb/s
Maximum bit rate : 3 094 kb/s
Width : 1 920 pixels
Height : 1 080 pixels
Display aspect ratio : 16:9
Frame rate mode : Constant
Frame rate : 25.000 FPS
Color space : YUV
Chroma subsampling : 4:2:0
Bit depth : 8 bits
Scan type : Progressive
Bits/(Pixel*Frame) : 0.029
Stream size : 97.0 MiB (92%)
Writing library : x264 core 148 r2744kMod b97ae06
Encoding settings : cabac=1 / ref=4 / deblock=1:0:0 / analyse=0x3:0x113 / me=hex / subme=8 / psy=1 / fade_compensate=0.00 / psy_rd=1.00:0.00 / mixed_ref=1 / me_range=16 / chroma_me=1 / trellis=2 / 8x8dct=1 / cqm=0 / deadzone=21,11 / fast_pskip=1 / chroma_qp_offset=-2 / threads=12 / lookahead_threads=2 / sliced_threads=0 / nr=0 / decimate=1 / interlaced=0 / bluray_compat=0 / constrained_intra=0 / bframes=3 / b_pyramid=2 / b_adapt=1 / b_bias=0 / direct=3 / weightb=1 / open_gop=0 / weightp=2 / keyint=250 / keyint_min=25 / scenecut=40 / intra_refresh=0 / rc_lookahead=50 / rc=2pass / mbtree=1 / bitrate=1500 / ratetol=1.0 / qcomp=0.60 / qpmin=0 / qpmax=69 / qpstep=4 / cplxblur=20.0 / qblur=0.5 / ip_ratio=1.40 / aq=1:1.00
Encoded date : UTC 2017-11-29 19:17:10
Tagged date : UTC 2017-11-29 19:17:11

Audio
ID : 2
Format : AAC
Format/Info : Advanced Audio Codec
Format profile : LC
Codec ID : 40
Duration : 9 min
Bit rate mode : Variable
Bit rate : 128 kb/s
Maximum bit rate : 147 kb/s
Channel(s) : 2 channels
Channel positions : Front: L R
Sampling rate : 48.0 kHz
Frame rate : 46.875 FPS (1024 spf)
Compression mode : Lossy
Stream size : 8.25 MiB (8%)
Encoded date : UTC 2017-11-29 19:10:26
Tagged date : UTC 2017-11-29 19:17:11


Licklibrary - Jam with Rammstein (2017)
DOWNLOAD
(Buy premium account for maximum speed and resuming ability)


Direct Download

Tags: licklibrary, rammstein

Licklibrary - Jam with Rammstein (2017) Fast Download via Rapidshare Hotfile Fileserve Filesonic Megaupload, Licklibrary - Jam with Rammstein (2017) Torrents and Emule Download or anything related.
Author: tnt1411  |  Comments: 0  |  Views: 0  
Dear visitor, welcome here, but you are visiting our website as an unregistered user.
We recommend you Register or login with your own username.
Information
Members of Guest cannot leave comments.