Category: Tutorial   
Download Now


Rick Parfitt's Rhythm Method   Learn to play Status Quo
Rick Parfitt's Rhythm Method / Learn to play Status Quo
DVDRip | English | AVI | 672 x 368 | XviD ~635 kbps | 25 fps
MP3 80 Kbps 48.0 KHz | 1 channel | 03:29:34 | 1000 MB
Genre: eLearning Video / Guitar lesson



Learn the rhythm techniques that defined the Status Quo sound with the legendary Rick Parfitt.
Rick Parfitt has been rocking stadiums around the world for the last 40 years as one half of the unmistakeable guitar duo that form the classic riff driven powerhouse of Status Quo.
This superb DVD is designed for guitarists of all levels, and will teach you five tracks.
Disc 1 - Lessons (1:53:35):
Whatever You Want (33:24)
Whatever You Want - Performance (4:33)
Caroline (10:52)
Caroline - Performance (4:02)
Rain (16:52)
Rain - Performance (4:32)
Mystery Song (14:28)
Mystery Song - Performance (4:29)
Hold You Back (15:00)
Hold You Back - Performance (4:29)
Disc 2 - Bonus (1:35:59):
Credits (4:28)
DVD Promo (5:04)
Facelift Promo (1:18)
Interview (22:22)
Live - Harrods Singing (30:23)
Rick's Guitars & Gear (Shepperton Rehersal Studio) (32:24)
General
Complete name : 02_-_Caroline.avi
Format : AVI
Format/Info : Audio Video Interleave
File size : 56.4 MiB
Duration : 10 min 52 s
Overall bit rate : 725 kb/s
Writing library : VirtualDubMod build 2439/release
Video
ID : 0
Format : MPEG-4 Visual
Format profile : Advanced [url=/cdn-cgi/l/email-protection][email?protected]
Format settings : BVOP1
Format settings, BVOP : 1
Format settings, QPel : No
Format settings, GMC : No warppoints
Format settings, Matrix : Default (MPEG)
Codec ID : XVID
Codec ID/Hint : XviD
Duration : 10 min 52 s
Bit rate : 635 kb/s
Width : 672 pixels
Height : 368 pixels
Display aspect ratio : 1.85:1
Frame rate : 25.000 FPS
Color space : YUV
Chroma subsampling : 4:2:0
Bit depth : 8 bits
Scan type : Progressive
Compression mode : Lossy
Bits/(Pixel*Frame) : 0.103
Stream size : 49.4 MiB (88%)
Writing library : XviD 1.2.1 (UTC 2008-12-04)
Audio
ID : 1
Format : MPEG Audio
Format version : Version 1
Format profile : Layer 3
Codec ID : 55
Codec ID/Hint : MP3
Duration : 10 min 52 s
Bit rate mode : Constant
Bit rate : 80.0 kb/s
Channel(s) : 1 channel
Sampling rate : 48.0 kHz
Compression mode : Lossy
Stream size : 6.22 MiB (11%)
Alignment : Aligned on interleaves
Interleave, duration : 40 ms (1.00 video frame)
Interleave, preload duration : 504 ms
Writing library : LAME3.98.2

Rick Parfitt's Rhythm Method   Learn to play Status Quo

I recommends Buy premimum account for High speed+parallel downloads!

Rapidgator


Nitroflare


Direct Download

Tags: parfitt, rhythm, method, status

Rick Parfitt's Rhythm Method Learn to play Status Quo Fast Download via Rapidshare Hotfile Fileserve Filesonic Megaupload, Rick Parfitt's Rhythm Method Learn to play Status Quo Torrents and Emule Download or anything related.
Author: uswarez  |  Comments: 0  |  Views: 0  
Dear visitor, welcome here, but you are visiting our website as an unregistered user.
We recommend you Register or login with your own username.
Information
Members of Guest cannot leave comments.