Category: Tutorial   
Download Now

Backspace Trading   Price Action Trading Course

Backspace Trading - Price Action Trading Course
WEBRip | English | MP4 | 1280 x 720 | AVC ~277 Kbps | 25 fps
AAC | 126 Kbps | 44.1 KHz | 2 channels | ~15 hours | 2.17 GB
Genre: eLearning Video / Forex, Trading, Stock
India's first Animated Stock Market Training which includes 12+ more hours of explained concepts for traders to learn , whether you are a fresher or amateur in stock market world, you get to learn the IN and OUTS of Price Action.


Highly Advanced and Extreme Trend Analysis & Candlestick Analysis , for training your eyes and brain.
An exclusive concept where you can "Find Setups Make Money Tomorrow" in which you can get the right stock to trade with detailed set of mechanical rules established by Backspace Trading.
A BONUS Content free of cost for a weekly income aside from what you can earn from the normal course.
Thank you for stopping by !! Why not enroll for Backspace Trading - Price Action Course and be a rock-star !!

General
Complete name : 002+-+Introduction+to+Stock+Market.mp4
Format : MPEG-4
Format profile : Base Media / Version 2
Codec ID : mp42 (isom/mp42)
File size : 7.04 MiB
Duration : 2 min 25 s
Overall bit rate mode : Variable
Overall bit rate : 405 kb/s
Encoded date : UTC 2018-07-06 16:37:45
Tagged date : UTC 2018-07-06 16:37:45

Video
ID : 1
Format : AVC
Format/Info : Advanced Video Codec
Format profile :
Format settings : 3 Ref Frames
Format settings, CABAC : No
Format settings, RefFrames : 3 frames
Format settings, GOP : M=1, N=125
Codec ID : avc1
Codec ID/Info : Advanced Video Coding
Duration : 2 min 25 s
Bit rate : 277 kb/s
Width : 1 280 pixels
Height : 720 pixels
Display aspect ratio : 16:9
Frame rate mode : Constant
Frame rate : 25.000 FPS
Standard : PAL
Color space : YUV
Chroma subsampling : 4:2:0
Bit depth : 8 bits
Scan type : Progressive
Bits/(Pixel*Frame) : 0.012
Stream size : 4.81 MiB (68%)
Language : English
Encoded date : UTC 2018-07-06 16:37:45
Tagged date : UTC 2018-07-06 16:37:45
Color range : Limited

Audio
ID : 2
Format : AAC
Format/Info : Advanced Audio Codec
Format profile : LC
Codec ID : mp4a-40-2
Duration : 2 min 25 s
Source duration : 2 min 25 s
Bit rate mode : Variable
Bit rate : 126 kb/s
Maximum bit rate : 233 kb/s
Channel(s) : 2 channels
Channel positions : Front: L R
Sampling rate : 44.1 kHz
Frame rate : 43.066 FPS (1024 SPF)
Compression mode : Lossy
Stream size : 2.18 MiB (31%)
Source stream size : 2.18 MiB (31%)
Language : English
Encoded date : UTC 2018-07-06 16:37:45
Tagged date : UTC 2018-07-06 16:37:45
mdhd_Duration : 145728

Screenshots

Backspace Trading   Price Action Trading Course

Backspace Trading   Price Action Trading Course

Backspace Trading   Price Action Trading Course
DOWNLOAD
(Buy premium account for maximum speed and resuming ability)




Direct Download

Tags: backspace, trading, action, trading, course

Backspace Trading Price Action Trading Course Fast Download via Rapidshare Hotfile Fileserve Filesonic Megaupload, Backspace Trading Price Action Trading Course Torrents and Emule Download or anything related.
Author: tnt1411  |  Comments: 0  |  Views: 12301  
Dear visitor, welcome here, but you are visiting our website as an unregistered user.
We recommend you Register or login with your own username.
Information
Members of Guest cannot leave comments.