Category: Tutorial   
Download Now

Timothy Morge   Market Geometry

Timothy Morge - Market Geometry
WEBRip | English | FLV | 1278 x 1022 | Sorenson Spark ~781 Kbps | 10 fps
MP3 | 96 Kbps | 44.1 KHz | 2 channels | ~62 hours | 10.27 GB
Genre: eLearning Video / Forex, Trading, Stock
Learn from one of the premier commodity and currency traders in the world. Let me introduce myself. I'm Timothy Morge and I've worked at the largest financial institutions in the world as a commodities and currency trader. My mentors and the training I received were from people only available to these institutions. Now, after 40 years experience, I am sharing my experience and expertise with new traders.


Learning to trade with me at my educational center MarketGeometry is a process that involves dedication. I tell my students there is no "magic trick" or "holy grail" or any other shortcut. We don't run chat rooms or market buy/sell signals. I teach you my technical analysis methodology as well as sound money management and sensible risk vs reward analysis.

MarketGeometry offers many resources at no charge to help you get to know us before committing your time and money to our classes. I encourage you to explore thoroughly so you understand what we are all about.

Look through Tim Morge's eyes as he evaluates markets live, right around the US opening. Watch him trade and demonstrate the proprietary techniques that have made him one of the world's top traders today.

General
Complete name : mm100609.flv
Format : Flash Video
File size : 255 MiB
Duration : 1 h 22 min
Overall bit rate : 435 kb/s

Video
Format : Sorenson Spark
Codec ID : 2
Duration : 1 h 22 min
Bit rate : 781 kb/s
Width : 1 278 pixels
Height : 1 022 pixels
Display aspect ratio : 5:4
Frame rate mode : Constant
Frame rate : 10.000 FPS
Bit depth : 8 bits
Bits/(Pixel*Frame) : 0.060
Stream size : 459 MiB

Audio
Format : MPEG Audio
Format version : Version 1
Format profile : Layer 3
Format settings : Joint stereo / MS Stereo
Codec ID : 2
Codec ID/Hint : MP3
Duration : 1 h 22 min
Bit rate mode : Constant
Bit rate : 96.0 kb/s
Channel(s) : 2 channels
Sampling rate : 44.1 kHz
Compression mode : Lossy
Stream size : 56.3 MiB (22%)

Screenshots

Timothy Morge   Market Geometry

Timothy Morge   Market Geometry

Timothy Morge   Market Geometry
DOWNLOAD
(Buy premium account for maximum speed and resuming ability)




Direct Download

Tags: timothy, market, geometry

Timothy Morge Market Geometry Fast Download via Rapidshare Hotfile Fileserve Filesonic Megaupload, Timothy Morge Market Geometry Torrents and Emule Download or anything related.
Author: tnt1411  |  Comments: 0  |  Views: 261  
Dear visitor, welcome here, but you are visiting our website as an unregistered user.
We recommend you Register or login with your own username.
Information
Members of Guest cannot leave comments.